#TITLE:World Revolution;
#SUBTITLE:Chrono Trigger;
#ARTIST:光田康典;
#TITLETRANSLIT:;
#SUBTITLETRANSLIT:;
#ARTISTTRANSLIT:Yasunori Mitsuda;
#CREDIT:;
#BANNER:World Revolution.png;
#BACKGROUND:World Revolution-bg.png;
#LYRICSPATH:;
#CDTITLE:!danceguyTitle.png;
#MUSIC:World Revolution.mp3;
#OFFSET:-0.161;
#SAMPLESTART:37.680;
#SAMPLELENGTH:13.500;
#SELECTABLE:YES;
#BPMS:0.000=150.930;
#STOPS:;
#BGCHANGES:;
// cache tags:
#FIRSTBEAT:0.000;
#LASTBEAT:201.750;
#SONGFILENAME:Songs/Music V.I.P ^_^/World Revolution (dAnceguy117)/World Revolution.sm;
#HASMUSIC:1;
#HASBANNER:1;
#MUSICLENGTH:85.028;
// end cache tags

//---------------dance-single - ----------------
#NOTES:
     dance-single:
     :
     Hard:
     11:
     0.699,0.801,0.094,0.400,0.576,374.000,8.000,34.000,0.000,0.000:

1002
0000
0000
0000
,
0203
0000
0000
0000
0000
0000
0000
0000
0320
0000
0000
0000
0000
0000
1030
0010
,
2000
0000
0000
0000
,
3200
0000
0320
0000
,
0032
0000
0000
0000
,
0000
0000
0000
0000
0000
0000
0000
0000
0023
0000
0000
0000
0000
0000
0031
1000
,
0200
0000
0000
0000
,
0320
0000
0230
0000
,
2300
0000
0000
0000
,
0000
0000
0000
0000
0000
0000
0000
0000
3002
0000
0000
0000
0000
0000
0013
0001
,
0020
0000
0000
0000
,
0230
0000
2300
0000
,
3002
0000
0000
0000
,
0000
0000
0203
0000
,
0320
0000
0000
0000
,
1030
0010
0100
0001
0010
0100
1000
0001
0100
0010
1000
0100
0010
0001
0010
0100
,
0000
0000
0100
1000
0100
0000
0010
0000
0001
0010
0001
0000
1000
0000
0001
0000
,
0001
0000
1000
0010
1000
0000
0100
0000
1000
0001
1000
0010
0100
0001
0010
0000
,
0001
0000
0010
0100
0010
0000
0001
0000
1000
0100
1000
0000
0010
0000
0100
0000
,
0100
0000
0001
1000
0001
0000
0010
0000
0100
1000
0100
0000
1000
0001
0010
0001
,
0100
0000
0001
0010
0100
0000
1000
0000
0010
0100
0001
0000
1000
0000
0100
0000
,
0100
1000
0010
1000
0100
0010
0001
1000
0010
0100
0001
0010
0100
1000
0010
0100
,
0001
0000
0100
0001
1000
0000
0100
0000
0010
0001
0100
0000
0010
0000
1000
0000
,
1000
0000
1000
0010
0100
0000
0001
0000
0010
0100
1000
0001
0100
0010
1000
0100
,
0010
0000
0000
0001
0010
0001
1000
0000
0000
0100
0000
0000
1000
0000
0000
0001
0000
0000
0100
0000
0000
0010
0000
0000
,
2000
0000
0000
0000
0000
0000
0000
0000
0000
3001
1000
0000
0200
0000
0000
0000
0000
0000
1300
0000
0000
0001
0000
0000
,
0010
0000
0000
0000
0001
1000
0100
0000
1000
0000
0000
0000
0100
0000
0000
0000
1000
0000
0000
0000
0001
0000
0000
0000
0100
0000
0000
0000
0001
0000
0000
0000
,
0020
0000
0000
0000
0032
0000
1003
0001
,
0010
0000
0000
0000
0001
0010
0100
0000
1000
0000
0000
0000
0001
0000
0000
0000
1000
0000
0000
0000
0100
0000
0000
0000
0010
0000
0000
0000
0001
0000
0000
0000
,
2000
3002
0203
0320
,
1030
0000
0010
0100
0001
0000
1000
0000
0001
0010
0100
0000
1000
0000
0001
0000
,
0001
0000
1000
0100
0010
0000
0001
0000
0010
0001
1000
0000
0010
0000
0100
0000
,
0100
0000
0001
1000
0100
0000
0010
0000
0001
0010
0100
0000
1000
0000
0001
0000
,
0001
0000
0100
0010
1000
0000
0001
0000
1000
0001
0010
0000
0001
1000
0010
1000
,
0100
0000
0010
0001
1000
0000
0010
0000
0100
0001
0010
0000
0100
0000
1000
0000
,
1000
0001
0010
0100
1000
0100
0010
0001
1000
0010
0100
0001
0010
0100
0010
0001
,
1000
0000
0010
1000
0100
0000
0010
0000
0001
1000
0100
0000
0010
0000
0100
0000
,
0100
0000
1000
0001
0100
0000
0010
0000
1000
0001
0010
0100
1000
0001
0100
0010
,
1000
0000
0000
0010
1000
0010
0100
0000
0000
0001
0000
0000
1000
0000
0000
0100
0000
0000
0010
0000
0000
0001
0000
0000
,
2000
0000
0000
0000
0000
0000
0000
0000
0000
3010
1000
0000
0200
0000
0000
0000
0000
0000
1300
0000
0000
0001
0000
0000
,
0010
0000
0000
0000
0001
1000
0010
0000
0100
0000
0000
0000
1000
0000
0000
0000
0100
0000
0000
0000
0001
0000
0000
0000
1000
0000
0000
0000
0001
0000
0000
0000
,
0020
0000
0000
0000
0000
0000
0000
0000
0000
0130
0010
0000
0002
0000
0000
0000
0000
0000
1003
0000
0000
0001
0000
0000
,
0010
0000
0000
0000
0100
0010
0001
0000
1000
0000
0000
0000
0100
0000
0000
0000
1000
0000
0000
0000
0001
0000
0000
0000
0100
0000
0000
0000
0010
0000
0000
0000
,
2000
0000
0000
0000
3200
0000
0000
0000
0320
0000
0000
0000
0031
1000
0001
1000
,
0100
0100
0000
1010
0001
0001
0000
0110
,
0100
0000
0100
0000
0001
0000
1010
0000
0000
0001
0010
0100
1000
0100
0010
0000
,
0100
0100
0000
1010
0001
0001
0000
0110
,
1000
0000
1000
0000
0001
0000
1100
0000
0000
0001
1000
0100
0010
0001
0100
0000
,
0001
0000
0100
0000
0010
1000
0100
0010
0001
0000
0000
0000
1000
0000
0001
0000
,
0010
0100
1000
0100
0001
0000
0000
0000
0100
0000
1000
0000
0001
0100
1000
0100
,
0010
0000
0000
0000
0010
1000
0001
0110
0000
0000
0000
0000
0000
0000
0000
0000
;
